<?xml version="1.0" standalone="no"?>
<!DOCTYPE svg PUBLIC "-//W3C//DTD SVG 1.1//EN" "http://www.w3.org/Graphics/SVG/1.1/DTD/svg11.dtd" >
<svg xmlns="http://www.w3.org/2000/svg">
<metadata>
This is a custom SVG webfont generated by Font Squirrel.
</metadata>
<defs>
<font id="webfontcVZ3moO1" horiz-adv-x="1449" >
<font-face units-per-em="4096" ascent="3011" descent="-1085" />
<missing-glyph horiz-adv-x="630" />
<glyph unicode=" "  horiz-adv-x="630" />
<glyph unicode="&#x09;" horiz-adv-x="630" />
<glyph unicode="&#xa0;" horiz-adv-x="630" />
<glyph unicode="!" horiz-adv-x="774" d="M172 0v455h430v-455h-430zM258 811l-111 2200h480l-111 -2200h-258z" />
<glyph unicode="&#x22;" horiz-adv-x="659" d="M483 1909h-307l-61 1102h430z" />
<glyph unicode="#" horiz-adv-x="2465" d="M98 877l54 389h397l74 516h-394l54 389h393l115 840h393l-115 -840h520l115 840h393l-115 -840h385l-53 -389h-385l-74 -516h381l-53 -389h-381l-119 -877h-393l119 877h-520l-119 -877h-393l119 877h-398zM1016 1782l-74 -516h520l74 516h-520z" />
<glyph unicode="$" horiz-adv-x="1384" d="M573 3256h246v-250q402 -45 471 -565l-385 -49q-12 116 -55 184q-42 66 -119 66h-10q-161 -5 -168 -324q0 -59 16 -120q18 -68 37 -109q22 -47 66 -119q46 -76 67 -106l82 -117q65 -91 76 -105l12 -18l24.5 -35.5l29.5 -42.5l73 -104q20 -27 68 -103q44 -69 67 -114 l54 -111q29 -62 47 -123q12 -42 26 -121q13 -73 13 -129q-7 -675 -492 -737v-434h-246v442q-470 82 -499 705l385 24q24 -372 258 -372q177 0 184 368q0 59 -16 119q-17 62 -39 111q-20 43 -66 120q-49 81 -67 107l-80 111l-72 100q-139 190 -201 283q-64 96 -141 282 q-76 183 -76 340q7 585 430 684v262z" />
<glyph unicode="%" horiz-adv-x="2002" d="M590 0h-275l1106 3011h262zM500 2695v12q0 99 -70 99q-37 0 -55 -27q-19 -29 -19 -55v-29v-872q-1 -10 -1 -18q0 -93 75 -93q33 0 51 29q19 30 19 53v29v872zM1651 1188v12q0 98 -70 98q-38 0 -55 -26q-19 -28 -19 -55v-29v-873q-1 -10 -1 -19q0 -95 75 -95q70 0 70 102 v12v873zM745 1823q0 -5 -2 -37q-2 -25 -18 -86t-47 -107q-29 -44 -94 -84q-63 -39 -154 -39q-258 0 -311 271l-8 82v872q0 5 2 37q1 24 18 84q16 58 47 106q30 46 96 84q65 37 156 37q140 0 219 -88q81 -90 88 -174l8 -86v-872zM1896 315q0 -4 -2 -36q-2 -24 -18 -84 t-47 -107q-29 -46 -94 -84q-62 -37 -154 -37q-143 0 -223 86q-81 87 -88 176l-8 86v873q0 5 2 37q2 25 18 86q16 59 47 106q30 45 96 84t156 39q250 0 307 -270l8 -82v-873z" />
<glyph unicode="&#x26;" horiz-adv-x="1708" d="M98 631q0 231 88 428q88 198 252 444q-213 450 -213 885v37q0 21 11 92q12 76 26 129q16 59 57 137q38 72 97 131q54 54 145 92q89 37 205 37q405 0 504 -430q25 -106 25 -197q0 -14 -1 -28q0 -324 -409 -868q154 -355 295 -570q65 189 94 422l352 -65 q-33 -427 -184 -717q112 -128 184 -152v-471q-45 0 -172 76q-130 78 -246 203q-246 -279 -503 -279q-259 0 -433 195t-174 469zM975 524q-180 286 -348 590q-17 -30 -29 -57q-16 -37 -45 -156q-29 -121 -29 -250q5 -131 60 -215q56 -84 141 -84q120 0 250 172zM922 2400 q-4 4 0 31q1 8 1 19q0 21 -5 53q-7 43 -23 86t-47 71q-34 31 -82 31q-78 0 -117 -76q-39 -77 -39 -149v-78q0 -222 111 -492q201 312 201 504z" />
<glyph unicode="'" horiz-adv-x="618" d="M520 3011v-455l-225 -533h-205l143 533h-143v455h430z" />
<glyph unicode="(" horiz-adv-x="1122" d="M717 3178l323 -167q-10 -14 -55 -82q-32 -49 -125 -230q-92 -180 -158 -364q-66 -183 -122 -475q-56 -289 -56 -570q0 -275 54 -565q53 -284 129 -481q87 -225 151 -357q76 -156 129 -235l53 -78l-323 -168l-64 100q-33 53 -139 267q-100 201 -178 413t-141 514 q-64 308 -64 590q0 292 59 586q61 301 148 522q88 224 174 408q82 177 143 278z" />
<glyph unicode=")" horiz-adv-x="1122" d="M82 3011l324 167l63 -100q38 -61 139 -268q98 -201 178 -414t142 -514q63 -304 63 -592q0 -291 -59 -585q-61 -303 -148 -523q-85 -214 -174 -405q-83 -177 -143 -277l-61 -94l-324 168q10 14 55 82q34 52 125 229q90 175 158 363q67 185 123 473q55 284 55 569 q0 280 -53 565q-53 286 -129 482q-83 214 -152 358q-78 163 -129 238z" />
<glyph unicode="*" horiz-adv-x="1355" d="M561 2658l-37 353h307l-36 -353l327 140l86 -295l-344 -70l230 -274l-263 -160l-155 303l-152 -303l-262 160l230 274l-345 70l86 295z" />
<glyph unicode="+" horiz-adv-x="2121" d="M147 1298v344h742v693h344v-693h741v-344h-741v-692h-344v692h-742z" />
<glyph unicode="," horiz-adv-x="618" d="M520 455v-455l-225 -532h-205l143 532h-143v455h430z" />
<glyph unicode="-" horiz-adv-x="888" d="M147 909v389h594v-389h-594z" />
<glyph unicode="." horiz-adv-x="643" d="M106 0v455h431v-455h-431z" />
<glyph unicode="/" horiz-adv-x="1441" d="M16 -295l1086 3306h323l-1073 -3306h-336z" />
<glyph unicode="0" d="M1315 618q0 -29 -4 -69q-4 -43 -35 -158q-30 -111 -86 -198q-58 -89 -176 -156q-123 -70 -289 -70q-167 0 -289 68q-120 66 -176 164q-57 99 -86 190q-31 97 -35 160l-4 69v1774q0 30 4 70q4 41 35 157q30 113 86 199q58 89 176 156q122 69 289 69q168 0 289 -67 q120 -67 176 -162q56 -96 86 -191q31 -98 35 -165l4 -66v-1774zM872 2392q0 12 -2 62q-1 36 -39 98q-37 61 -106 61q-70 0 -107 -55q-36 -53 -36 -109l-4 -57v-1774q0 -11 2 -61q2 -38 38 -98q38 -62 107 -62q68 0 106 56q37 55 37 112l4 53v1774z" />
<glyph unicode="1" horiz-adv-x="950" d="M344 2359h-295v283q108 22 189 65q84 44 137 97q51 52 86 98q35 47 47 80l12 29h266v-3011h-442v2359z" />
<glyph unicode="2" horiz-adv-x="1462" d="M565 2056h-442v209q0 778 590 778t590 -749q0 -670 -693 -1856h701v-438h-1200v438l77 123q54 85 177 305q119 212 225 441q96 206 182 483q83 268 88 475q0 369 -147 369q-148 0 -148 -369v-209z" />
<glyph unicode="3" horiz-adv-x="1372" d="M496 1360h-37v369q81 5 125 14q49 10 90 29q36 17 61 43q23 25 35 59t18 80q7 52 7 102v123v86q0 75 -2 137q-1 38 -15 117q-12 68 -43 102q-30 33 -80 33q-82 0 -104 -98q-23 -99 -27 -414h-434q0 150 4 230q4 87 35 231q30 139 88 225q57 84 168 150q109 65 270 65 q158 0 271 -61q115 -62 170 -141q54 -78 88 -185q33 -106 39 -159q6 -55 6 -101q0 -581 -213 -794l-4 -5q254 -201 254 -827q0 -50 -6 -117t-39 -198q-34 -134 -88 -232q-55 -99 -170 -178q-114 -78 -271 -78q-158 0 -272 64q-112 63 -172 151q-59 87 -94 226t-41 235 q-7 115 -7 225h435q5 -300 34 -405q30 -107 117 -107q91 0 115 101t24 280q0 12 1 56t2 77q2 96 0 125q0 8 -1.5 22t-3.5 36.5t-4 40.5q-6 70 -18 92q-7 13 -37 65q-23 43 -59 58q-24 10 -90 30q-55 16 -125 21z" />
<glyph unicode="4" horiz-adv-x="1368" d="M733 0v655h-684v389l647 1967h443v-1967h204v-389h-204v-655h-406zM684 1987l-258 -943h307v943v90h-24z" />
<glyph unicode="5" horiz-adv-x="1409" d="M590 758q0 -231 28 -318q28 -88 107 -88q74 0 104 90q31 93 31 312v671q0 222 -139 222q-66 0 -119 -80t-53 -142h-373v1586h1069v-439h-688v-626l43 30q30 20 94 47q69 29 117 25q154 0 266 -80q110 -79 154 -199q41 -111 57 -200q15 -83 15 -144v-671q0 -787 -578 -787 q-155 0 -266 60t-170 143q-59 82 -92 217q-34 137 -41 238q-9 126 -9 252h443v-119z" />
<glyph unicode="6" horiz-adv-x="1400" d="M1286 1233v-615q0 -84 -16 -167t-68 -207q-51 -121 -178 -199q-128 -78 -315 -78q-189 0 -316 78t-178 199q-52 124 -68 207t-16 167v1713q0 712 578 712q577 0 577 -712v-189h-442q0 322 -23 420q-23 96 -112 96q-79 0 -107 -73q-29 -75 -29 -254v-537q119 74 222 74 q159 0 266 -72q106 -72 151 -186t60 -203q14 -83 14 -174zM573 487q0 -41 35 -88t101 -47q61 0 98 49t37 86v902q0 37 -37 86t-98 49q-62 0 -97 -41q-34 -40 -39 -82v-914z" />
<glyph unicode="7" horiz-adv-x="1179" d="M229 0l451 2572h-664v439h1114v-443l-442 -2568h-459z" />
<glyph unicode="8" horiz-adv-x="1392" d="M1286 995v-352q0 -55 -4 -104q-5 -57 -37 -166q-33 -110 -90 -193q-55 -80 -176 -147q-119 -66 -283 -66t-282 66q-121 67 -176 147q-59 85 -91 193q-31 104 -36 166t-5 104v352q0 376 230 594q-205 205 -205 553v254q0 51 4 98q5 56 37 160q33 107 86 187q52 78 168 141 q113 61 270 61q158 0 271 -61q116 -63 168 -141q53 -80 86 -187q31 -99 36 -160q5 -58 5 -98v-254q0 -348 -205 -553q229 -217 229 -594zM856 819q0 304 -27 418q-27 115 -133 115t-133 -115q-26 -110 -26 -418q5 -256 34 -350q30 -96 125 -96q75 0 109 59q36 62 43 141 q8 88 8 246zM827 2241q0 225 -24 319t-107 94q-73 0 -100 -88q-26 -87 -31 -325q0 -250 25 -355q24 -100 106 -100q83 0 107 100t24 355z" />
<glyph unicode="9" horiz-adv-x="1400" d="M115 1806v586q0 85 16 168t68 207q51 121 178 199q126 77 315 77q190 0 316 -77q127 -78 178 -199q50 -119 67 -207t17 -168v-1712q0 -713 -578 -713q-577 0 -577 713v188h442q0 -321 23 -419q23 -97 112 -97q78 0 107 74q28 72 28 254v565q-119 -74 -221 -74 q-160 0 -266 72q-107 72 -152 187q-43 110 -59 202q-14 83 -14 174zM827 1638v885q0 42 -34 88q-35 47 -101 47q-61 0 -98 -49t-37 -86v-872q0 -37 37 -86t98 -49q62 0 96 40t39 82z" />
<glyph unicode=":" horiz-adv-x="724" d="M147 0v455h431v-455h-431zM147 1786v455h431v-455h-431z" />
<glyph unicode=";" horiz-adv-x="724" d="M147 1786v455h431v-455h-431zM578 455v-455l-226 -532h-205l144 532h-144v455h431z" />
<glyph unicode="&#x3c;" horiz-adv-x="2117" d="M147 1298v320l1823 950v-397l-1397 -713l1397 -713v-397z" />
<glyph unicode="=" horiz-adv-x="2117" d="M147 954v344h1823v-344h-1823zM147 1729v344h1823v-344h-1823z" />
<glyph unicode="&#x3e;" horiz-adv-x="2117" d="M1970 1618v-320l-1823 -950v397l1397 713l-1397 713v397z" />
<glyph unicode="?" horiz-adv-x="1290" d="M397 455v-455h430v455h-430zM803 811h-381v512q0 207 49 391q50 187 96 281q44 89 129 233q87 146 107 226q12 52 -23 120t-112 68h-8q-90 0 -156 -94q-70 -101 -98 -197l-357 168q22 61 68 137q47 78 119 164q78 94 192 152q108 55 229 55h19q163 -4 276 -68 q114 -64 164 -163q51 -100 72 -183q20 -79 20 -159q0 -164 -159 -439l-115 -190q-38 -63 -84 -213q-47 -152 -47 -289v-512z" />
<glyph unicode="@" horiz-adv-x="1744" d="M1630 2384v-1585h-327l-41 110q-6 -14 -23 -39q-15 -22 -74 -59t-129 -37q-291 0 -291 344v971q0 340 291 340q69 0 127 -35t78 -67l21 -33v90q0 101 -91 209q-90 106 -290 106q-201 0 -291 -106q-90 -107 -90 -209v-1778q0 -107 88 -207t293 -100q234 0 336 127 l303 -172q-218 -287 -639 -287q-213 0 -369 72q-154 71 -233 180t-113 207q-35 100 -35 180v1778q0 85 35 188q34 101 113 213t233 185q155 73 369 73q213 0 368 -73t234 -185q77 -110 112 -213t35 -188zM1262 1147v909q0 107 -99 107q-94 0 -94 -107v-909q0 -107 94 -107 q99 0 99 107z" />
<glyph unicode="A" horiz-adv-x="1531" d="M471 0h-430l455 3011h540l455 -3011h-430l-82 614h-426zM918 1081l-127 951l-13 77h-24l-13 -77l-127 -951h304z" />
<glyph unicode="B" horiz-adv-x="1490" d="M709 0h-545v3011h389q410 0 608 -183q199 -184 199 -616q0 -214 -60 -350q-62 -140 -215 -273q16 -6 33 -18q24 -17 74 -70q56 -59 94 -131q41 -78 74 -213q33 -137 33 -305q0 -828 -684 -852zM934 901q0 163 -33 268t-92 142q-61 38 -96 45q-40 8 -90 8h-17v-926 q147 0 217 62q111 111 111 401zM934 2171q0 117 -29 201q-28 81 -61 120q-34 40 -90 58q-59 19 -80 20q-30 2 -68 2v-803q23 0 68 3q21 1 80 20q57 18 90 57q32 38 61 121q29 84 29 201z" />
<glyph unicode="C" horiz-adv-x="1417" d="M901 1032h414v-414q0 -29 -4 -69q-4 -43 -35 -158q-30 -111 -86 -198q-58 -89 -176 -156q-123 -70 -289 -70q-167 0 -289 68q-120 66 -176 164q-57 99 -86 190q-31 97 -35 160l-4 69v1774q0 30 4 70q4 41 35 157q30 113 86 199q58 89 176 156q122 69 289 69 q168 0 289 -67q120 -67 176 -162q56 -96 86 -191q31 -98 35 -165l4 -66v-414h-414v414q-5 0 0 23q4 22 -6 55q-11 33 -25 65q-16 34 -49 56q-34 22 -88 22q-139 -21 -155 -221v-1774q0 -28 4 -61q4 -37 43 -98q39 -62 108 -62q81 0 125 56q43 55 43 112v53v414z" />
<glyph unicode="D" horiz-adv-x="1523" d="M1393 1503q0 -253 -7 -456q-6 -175 -24 -353q-18 -176 -57 -276q-39 -98 -101 -191q-62 -92 -160 -135t-225 -67q-133 -25 -307 -25h-348v3011h348q174 0 307 -25q123 -23 225 -68q98 -43 160 -135q63 -94 101 -190q39 -99 57 -279t24 -354q7 -203 7 -457zM606 2568 v-2126q189 0 246 82q77 110 82 639v344v110q0 653 -49 800q-45 130 -185 147q-33 4 -94 4z" />
<glyph unicode="E" horiz-adv-x="1257" d="M164 0v3011h1012v-455h-570v-791h410v-483h-410v-827h570v-455h-1012z" />
<glyph unicode="F" horiz-adv-x="1232" d="M1217 3011v-455h-611v-791h410v-454h-410v-1311h-442v3011h1053z" />
<glyph unicode="G" horiz-adv-x="1474" d="M1315 1929h-443v463q0 12 -2 62q-1 36 -39 98q-37 61 -106 61q-70 0 -107 -55q-36 -53 -36 -109l-4 -57v-1810q0 -12 2 -62q2 -38 38 -98q38 -62 107 -62q68 0 106 56q37 55 37 108l4 58v544h-176v373h619v-1499h-262l-54 143q-140 -176 -344 -176q-405 0 -499 426 q-23 97 -23 182q0 22 2 43v1774q0 30 4 70q4 41 35 157q30 113 86 199q58 89 176 156q122 69 289 69q168 0 289 -67q120 -67 176 -162q56 -96 86 -191q31 -98 35 -165l4 -66v-463z" />
<glyph unicode="H" horiz-adv-x="1556" d="M950 0v1311h-344v-1311h-442v3011h442v-1246h344v1246h443v-3011h-443z" />
<glyph unicode="I" horiz-adv-x="770" d="M164 0v3011h442v-3011h-442z" />
<glyph unicode="J" horiz-adv-x="847" d="M25 -29v435q3 0 11 -1.5t13 -1.5q14 -1 57 5q42 6 72 24q31 18 58 70q26 49 26 125v2384h443v-2454q0 -273 -158 -440q-140 -148 -443 -148q-38 0 -79 2z" />
<glyph unicode="K" horiz-adv-x="1536" d="M164 3011h442v-1004v-49h17l20 49l369 1004h430l-406 -992l459 -2019h-430l-307 1311l-13 61h-12l-24 -61l-103 -246v-1065h-442v3011z" />
<glyph unicode="L" horiz-adv-x="1208" d="M164 0v3011h442v-2601h586v-410h-1028z" />
<glyph unicode="M" horiz-adv-x="1982" d="M1085 0h-188l-283 1892l-16 127h-25v-127v-1892h-409v3011h541l262 -1377l20 -159h8l21 159l262 1377h541v-3011h-410v1892v127h-25l-16 -127z" />
<glyph unicode="N" horiz-adv-x="1617" d="M1061 0l-430 1569l-37 139h-25v-139v-1569h-405v3011h393l430 -1569l37 -139h25v139v1569h405v-3011h-393z" />
<glyph unicode="O" d="M1315 618q0 -29 -4 -69q-4 -43 -35 -158q-30 -111 -86 -198q-58 -89 -176 -156q-123 -70 -289 -70q-167 0 -289 68q-120 66 -176 164q-57 99 -86 190q-31 97 -35 160l-4 69v1774q0 30 4 70q4 41 35 157q30 113 86 199q58 89 176 156q122 69 289 69q168 0 289 -67 q120 -67 176 -162q56 -96 86 -191q31 -98 35 -165l4 -66v-1774zM872 2392q0 12 -2 62q-1 36 -39 98q-37 61 -106 61q-70 0 -107 -55q-36 -53 -36 -109l-4 -57v-1774q0 -11 2 -61q2 -38 38 -98q38 -62 107 -62q68 0 106 56q37 55 37 112l4 53v1774z" />
<glyph unicode="P" horiz-adv-x="1441" d="M164 0v3011h442q332 0 555 -211t223 -691q0 -479 -223 -692t-555 -213v-1204h-442zM606 2560v-905q205 0 268 90q64 91 64 348q0 263 -66 365t-266 102z" />
<glyph unicode="Q" horiz-adv-x="1458" d="M1315 618q0 -188 -90 -364q67 -86 176 -107v-376q-321 0 -455 233q-110 -37 -221 -37q-167 0 -289 68q-120 66 -176 164q-57 99 -86 190q-31 97 -35 160l-4 69v1774q0 30 4 70q4 41 35 157q30 113 86 199q58 89 176 156q122 69 289 69q168 0 289 -67q120 -67 176 -162 q56 -96 86 -191q31 -98 35 -165l4 -66v-1774zM872 2392q0 12 -2 62q-1 36 -39 98q-37 61 -106 61q-70 0 -107 -55q-36 -53 -36 -109l-4 -57v-1774q0 -11 2 -61q2 -38 38 -98q38 -62 107 -62q68 0 106 56q37 55 37 112l4 53v1774z" />
<glyph unicode="R" horiz-adv-x="1478" d="M1397 0h-443l-229 1270h-119v-1270h-442v3011h442q754 0 754 -869q0 -516 -246 -684zM934 2126q0 148 -31 250q-30 98 -90 137t-102 49q-41 10 -105 10v-893q59 0 105 11q42 10 102 49t90 137q31 102 31 250z" />
<glyph unicode="S" horiz-adv-x="1404" d="M135 2339q0 277 144 489q143 211 434 215h22q174 0 297 -69q131 -74 191 -203t84 -254t24 -272l-434 -41q0 434 -176 434q-152 -5 -152 -299q0 -28 9 -80q7 -41 20 -78q10 -28 37 -86q23 -49 41 -80t55 -88l57 -86q8 -12 24.5 -35l41.5 -59l33 -47t19 -26.5l12 -18.5 l208 -320q64 -103 134 -278q71 -177 71 -332q0 -758 -614 -758q-163 0 -285 51q-121 51 -188 127q-69 78 -107 199q-39 123 -51 236q-12 112 -12 264l434 41q0 -512 209 -512q180 0 180 332q0 58 -16 118t-64 148q-47 87 -74 127l-106 157q-78 114 -96 146 q-139 204 -205 315q-75 125 -137 297q-64 177 -64 326z" />
<glyph unicode="T" horiz-adv-x="1294" d="M426 2556h-418v455h1278v-455h-418v-2556h-442v2556z" />
<glyph unicode="U" horiz-adv-x="1499" d="M897 3011h442v-2393q0 -29 -4 -69q-4 -43 -35 -158q-30 -111 -86 -198q-58 -89 -176 -156q-123 -70 -288 -70q-167 0 -289 68q-120 66 -176 164q-57 99 -86 190q-31 97 -35 160l-4 69v2393h442v-2393q0 -11 2 -61q1 -36 39 -98t107 -62q68 0 106 56q37 55 37 112l4 53 v2393z" />
<glyph unicode="V" horiz-adv-x="1433" d="M745 1356l222 1655h430l-459 -3011h-442l-459 3011h430l221 -1655l17 -127h24z" />
<glyph unicode="W" horiz-adv-x="2072" d="M1004 1425l-205 -1425h-344l-406 3011h410l176 -1565l8 -98h33l12 98l189 1565h319l188 -1565l13 -98h33l8 98l176 1565h409l-405 -3011h-344l-205 1425l-25 177h-16z" />
<glyph unicode="X" horiz-adv-x="1474" d="M721 897l-254 -897h-434l487 1581l-479 1430h434l242 -762l12 -37h16l13 37l241 762h435l-480 -1430l488 -1581h-434l-254 897l-9 37h-16z" />
<glyph unicode="Y" horiz-adv-x="1400" d="M463 3011l221 -963l12 -29h9l12 29l221 963h434l-450 -1729v-1282h-443v1282l-450 1729h434z" />
<glyph unicode="Z" horiz-adv-x="1253" d="M41 0v475l692 2097h-594v439h1073v-439l-704 -2134h704v-438h-1171z" />
<glyph unicode="[" horiz-adv-x="1077" d="M963 3011v-394h-406v-2650h406v-393h-799v393v3044h799z" />
<glyph unicode="\" horiz-adv-x="1585" d="M340 3383l1229 -3743h-336l-1217 3743h324z" />
<glyph unicode="]" horiz-adv-x="1077" d="M115 2617v394h798v-3044v-393h-798v393h405v2650h-405z" />
<glyph unicode="^" horiz-adv-x="2203" d="M868 3011h467l762 -1393h-397l-598 1085l-598 -1085h-398z" />
<glyph unicode="_" horiz-adv-x="2420" d="M147 -651v344h2126v-344h-2126z" />
<glyph unicode="`" horiz-adv-x="2048" d="M586 2978h430l213 -369h-320z" />
<glyph unicode="a" horiz-adv-x="1363" d="M504 582q0 -209 114 -209q70 0 121 39q52 40 52 96v573q-287 -123 -287 -499zM98 520q0 212 68 375t166 248q102 88 196 145q105 63 177 101q79 41 86 73v74v172q0 205 -115 205q-41 0 -66 -19q-24 -18 -35 -65q-6 -28 -14 -74q-4 -24 -4 -94v-80h-414v94q0 247 162 422 q162 176 395 176q205 0 355 -147q149 -146 149 -361v-700v-676q0 -213 29 -389h-406q-36 39 -36 180h-29q-41 -74 -131 -143q-91 -70 -201 -70q-119 0 -225 121q-107 122 -107 432z" />
<glyph unicode="b" horiz-adv-x="1372" d="M164 0v3011h414v-918q176 180 327 180q155 0 238 -137q82 -136 82 -301v-1429q0 -166 -82 -302q-83 -137 -238 -137q-65 0 -147 45q-80 44 -131 90l-49 45v-147h-414zM578 492q0 -59 38 -97q39 -39 84 -39t78 39t33 97v1257q0 57 -33 96t-78 39t-84 -43q-38 -42 -38 -92 v-1257z" />
<glyph unicode="c" horiz-adv-x="1290" d="M545 1724v-1208q0 -180 114 -180q71 0 95 39t24 141v311h414v-217q0 -360 -129 -501q-130 -142 -404 -142q-528 0 -528 664v979q0 663 528 663q275 0 404 -141t129 -502v-176h-414v270q0 103 -24 142t-95 39q-114 0 -114 -181z" />
<glyph unicode="d" horiz-adv-x="1372" d="M1208 3011v-3011h-413v147q-175 -180 -328 -180q-155 0 -238 137q-82 136 -82 302v1429q0 165 82 301q83 137 238 137q65 0 147 -45q80 -44 131 -90l50 -45v918h413zM795 492v1257q0 49 -39 92t-84 43t-78 -39t-33 -96v-1257q0 -58 33 -97t78 -39t84 39t39 97z" />
<glyph unicode="e" horiz-adv-x="1318" d="M815 803h385v-258q0 -29 -4 -64q-4 -37 -33 -137q-28 -97 -78 -176t-159 -139q-112 -62 -262 -62q-146 0 -258 62q-110 61 -160 147q-49 84 -78 172q-28 85 -33 148l-4 61v1126q0 29 4 64q5 39 33 141q28 101 80 180q52 80 162 142q111 63 258 63q396 0 503 -393 q29 -104 29 -184v-652h-684v-487v-25q0 -13 8 -55q7 -37 23 -67q17 -32 47 -54q33 -24 74 -24q140 21 147 225v246zM516 1683v-315h299v315q0 12 -2 64q-1 39 -39 102q-38 64 -106 64q-65 0 -105 -58q-38 -56 -43 -114z" />
<glyph unicode="f" horiz-adv-x="950" d="M664 0h-414v1868h-209v373h209v32v29q0 109 4 168q4 62 29 184q24 121 69 189q45 70 142 127q96 57 231 57q130 0 193 -29v-356q-51 16 -123 16q-131 0 -131 -360v-33v-24h208v-373h-208v-1868z" />
<glyph unicode="g" horiz-adv-x="1400" d="M1176 1716v-635q0 -16 -5 -59q-5 -41 -34 -133q-30 -93 -80 -168q-49 -72 -158 -133q-108 -60 -256 -60q-57 0 -78 4q-57 -50 -57 -102q0 -34 22 -57q23 -25 84 -41q60 -16 91 -21q64 -10 118 -20q118 -17 203 -43q89 -27 178 -82q91 -56 142 -156t51 -239 q0 -304 -207 -439t-502 -135q-324 7 -495 105q-168 96 -168 329q0 189 323 340q-250 69 -250 299q0 90 80 187q81 97 178 149q-100 68 -161 191t-68 211l-8 86v610q0 28 4 61q4 37 33 136t77 174q48 74 158 137q107 61 252 61q270 0 414 -205q205 205 340 205v-368 q-142 0 -242 -50zM770 1688q-4 0 0 20q4 19 -4 51q-9 37 -18 62q-11 31 -37 51t-68 20q-58 0 -88 -51q-31 -53 -31 -104v-49v-615v-55q0 -33 31 -90q30 -56 88 -56q127 12 127 201v615zM1012 -303q0 65 -41 100q-43 36 -180 60l-213 41q-152 -86 -152 -197q0 -156 270 -156 q118 0 217 39t99 113z" />
<glyph unicode="h" horiz-adv-x="1380" d="M713 1872q-82 0 -135 -107v-1765h-414v3011h414v-959l63 64q56 56 133 108q73 49 139 49q152 0 232 -137t80 -301v-1835h-414v1774q0 98 -98 98z" />
<glyph unicode="i" horiz-adv-x="741" d="M578 0h-414v2241h414v-2241zM164 2597v414h414v-414h-414z" />
<glyph unicode="j" horiz-adv-x="729" d="M152 2597v414h413v-414h-413zM152 2241h413v-2298q0 -109 -4 -168q-4 -64 -29 -181q-24 -115 -69 -184q-46 -70 -141 -125t-232 -55q-57 0 -102 6q-50 7 -62 10l-16 9v380q55 -16 115 -16q127 0 127 284v19v25v2294z" />
<glyph unicode="k" horiz-adv-x="1282" d="M164 3011h414v-1356v-74h20l25 74l200 586h373l-299 -730l377 -1511h-397l-205 905l-8 33h-21l-12 -33l-53 -131v-774h-414v3011z" />
<glyph unicode="l" horiz-adv-x="741" d="M578 0h-414v3011h414v-3011z" />
<glyph unicode="m" horiz-adv-x="2043" d="M1389 1872q-82 0 -156 -107v-1765h-389v1774q0 98 -111 98q-81 0 -155 -107v-1765h-414v2241h414v-189q3 0 65 62q61 60 137 110q76 49 142 49q200 0 278 -250l86 82q80 76 152 121q74 47 139 47q151 0 231 -137t80 -301v-1835h-389v1774q0 98 -110 98z" />
<glyph unicode="n" horiz-adv-x="1380" d="M713 1872q-82 0 -135 -107v-1765h-414v2241h414v-189l63 64q56 56 133 108q73 49 139 49q152 0 232 -137t80 -301v-1835h-414v1774q0 98 -98 98z" />
<glyph unicode="o" horiz-adv-x="1314" d="M1188 1696v-1151q0 -12 -2 -64q-1 -34 -31 -137q-28 -96 -80 -176q-50 -76 -160 -139q-109 -62 -260 -62q-146 0 -258 62q-109 60 -159 147q-49 84 -78 172q-29 87 -29 148l-4 61v1126q0 12 2 64q1 35 31 141q28 102 78 180q51 81 159 142q111 63 258 63q397 0 504 -393 q29 -104 29 -184zM799 1683q-5 0 0 23q1 7 1 16q0 16 -5 41q-6 25 -21 68q-12 32 -43 57t-76 25q-134 -21 -139 -230v-1126q4 0 0 -22q-1 -7 -1 -16q0 -17 5 -42q5 -23 21 -67q12 -33 43 -56q29 -22 71 -22q140 21 144 225v1126z" />
<glyph unicode="p" horiz-adv-x="1372" d="M164 -770v3011h414v-148q176 180 327 180q155 0 238 -137q82 -136 82 -301v-1429q0 -166 -82 -302q-83 -137 -238 -137q-65 0 -147 45q-80 44 -131 90l-49 45v-917h-414zM578 1749v-1257q0 -51 38 -93q39 -43 84 -43t78 39t33 97v1257q0 57 -33 96t-78 39t-84 -39 q-38 -38 -38 -96z" />
<glyph unicode="q" horiz-adv-x="1372" d="M1208 2241v-3011h-413v917q-175 -180 -328 -180q-155 0 -238 137q-82 136 -82 302v1429q0 165 82 301q83 137 238 137q65 0 147 -45q80 -44 131 -90l50 -45v148h413zM795 1749q0 57 -39 96t-84 39t-78 -39t-33 -96v-1257q0 -58 33 -97t78 -39t84 43t39 93v1257z" />
<glyph unicode="r" horiz-adv-x="1007" d="M991 2273v-458q-66 21 -125 21q-112 0 -198 -75q-90 -83 -90 -205v-1556h-414v2241h414v-250q16 83 116 182q100 100 297 100z" />
<glyph unicode="s" horiz-adv-x="1261" d="M143 1667q0 106 25 209q23 94 78 190q53 93 155 148q100 54 246 59h26q155 0 259 -51q112 -55 162 -158q48 -99 65 -190t17 -207h-385q0 262 -136 262q-127 -4 -127 -262q0 -65 47 -145q46 -78 91 -125q55 -57 133 -131q381 -364 381 -684q0 -246 -129 -430 q-129 -185 -400 -185q-145 0 -252 49q-110 50 -170 121t-98 170q-36 95 -47 178q-10 76 -10 166h385q0 -340 192 -340q144 0 144 271q0 146 -258 397q-135 131 -197 197q-62 67 -129 202q-68 138 -68 289z" />
<glyph unicode="t" horiz-adv-x="1003" d="M250 2793h414v-552h282v-373h-282v-1114q0 -369 131 -369l151 16v-405q-92 -29 -221 -29q-133 0 -231 58t-142 129q-45 73 -69 192q-25 125 -29 191q-4 61 -4 184v1147h-209v373h209v552z" />
<glyph unicode="u" horiz-adv-x="1380" d="M668 369q83 0 135 106v1766h414v-2241h-414v188l-64 -63q-59 -59 -133 -109q-73 -49 -139 -49q-151 0 -231 137t-80 302v1835h413v-1774q0 -98 99 -98z" />
<glyph unicode="v" horiz-adv-x="1204" d="M807 0h-410l-364 2241h401l135 -1299l17 -143h32l17 143l135 1299h401z" />
<glyph unicode="w" horiz-adv-x="1810" d="M1438 0h-344l-160 1069l-21 127h-16l-20 -127l-160 -1069h-344l-332 2241h377l131 -1172l16 -127h25l20 127l172 1172h246l172 -1172l21 -127h24l17 127l131 1172h376z" />
<glyph unicode="x" horiz-adv-x="1236" d="M33 0l385 1155l-352 1086h389l147 -525l12 -61h9l12 61l147 525h389l-352 -1086l385 -1155h-401l-168 565l-12 62h-9l-12 -62l-168 -565h-401z" />
<glyph unicode="y" horiz-adv-x="1269" d="M66 -795v369q35 -8 98 -8q122 12 194 123t72 245l-381 2307h406l163 -1377l9 -114h16l8 114l164 1377h406l-398 -2409q-33 -255 -188 -444q-156 -191 -385 -191z" />
<glyph unicode="z" horiz-adv-x="1064" d="M25 0v336l569 1528h-479v377h917v-336l-569 -1528h569v-377h-1007z" />
<glyph unicode="{" horiz-adv-x="1376" d="M385 2306q0 445 193 596q181 141 637 141h47v-344h-28q-247 0 -349 -76q-107 -80 -107 -317v-795q0 -286 -254 -442q254 -164 254 -442v-795q0 -237 107 -317q102 -76 349 -76h28v-344h-47q-456 0 -637 141q-193 151 -193 596v795q0 43 -16 94q-17 55 -82 117 q-65 63 -164 67v328q144 0 203 98q59 97 59 180v795z" />
<glyph unicode="|" horiz-adv-x="712" d="M549 -1024h-385v4407h385v-4407z" />
<glyph unicode="}" horiz-adv-x="1376" d="M991 2306v-795q0 -43 17 -100q17 -56 82 -117t163 -61v-328q-142 -7 -202 -104q-60 -96 -60 -174v-795q0 -446 -192 -596q-181 -141 -637 -141h-47v344h28q247 0 349 76q106 79 106 317v795q0 278 254 442q-254 156 -254 442v795q0 238 -106 317q-102 76 -349 76h-28v344 h47q456 0 637 -141q192 -150 192 -596z" />
<glyph unicode="~" horiz-adv-x="2560" d="M897 2949q-127 0 -227 -90t-138 -180l-36 -90l-271 114q6 20 25 66q18 44 76 147q60 106 129 189q67 80 190 147q121 66 252 66q112 0 223 -37q114 -38 164 -66q59 -33 166 -102q212 -143 348 -143q217 0 356 307l25 57l270 -115q-7 -21 -24 -67q-18 -46 -76 -150 q-60 -106 -129 -186q-68 -79 -182 -147q-113 -68 -240 -68q-242 0 -545 201q-229 147 -356 147z" />
<glyph unicode="&#xa1;" horiz-adv-x="774" d="M172 1786v455h430v-455h-430zM147 -770l111 2200h258l111 -2200h-480z" />
<glyph unicode="&#xa2;" horiz-adv-x="1273" d="M549 3133h246v-487q197 -33 288 -176q93 -146 93 -455v-176h-377v270q0 181 -148 181q-143 0 -143 -181v-1208q0 -180 143 -180q148 0 148 180v311h377v-217q0 -308 -93 -456q-92 -146 -288 -179v-606h-246v602q-418 61 -418 660v979q0 594 418 655v483z" />
<glyph unicode="&#xa3;" horiz-adv-x="1634" d="M1446 2241h-426q0 171 -51 284q-49 109 -169 109h-9q-95 -5 -138 -103t-43 -233q0 -224 140 -676l12 -49h422v-275h-348q49 -199 49 -348q0 -206 -115 -438q35 -18 88 -49q56 -33 96 -51q43 -19 82 -19q147 8 164 381l377 -45q-24 -364 -164 -563t-340 -199 q-101 0 -287 103q-184 102 -258 102q-65 0 -122 -51q-58 -51 -82 -105l-25 -49l-291 160q10 25 47 106q28 62 140 183q107 116 235 137q74 222 74 397q0 133 -62 348h-376v275h294l-12 41q-155 505 -155 684q0 139 30 262q30 121 96 233q66 111 185 179q117 66 278 71h24 q177 0 304 -63q134 -67 207 -187q71 -118 100 -253q29 -137 29 -299z" />
<glyph unicode="&#xa5;" horiz-adv-x="1441" d="M147 680v274h353v275h-353v274h295l-393 1508h434l222 -963l12 -29h8l12 29l221 963h435l-394 -1508h295v-274h-352v-275h352v-274h-352v-680h-442v680h-353z" />
<glyph unicode="&#xa8;" horiz-adv-x="2048" d="M545 2609v402h381v-402h-381zM1122 2609v402h381v-402h-381z" />
<glyph unicode="&#xa9;" horiz-adv-x="3289" d="M106 1503q0 634 451 1088q449 452 1085 452t1088 -452q453 -453 453 -1088t-453 -1085q-454 -451 -1088 -451t-1085 451t-451 1085zM1741 1225h274v-250q0 -7 -2 -43q-2 -28 -22 -94q-21 -67 -56 -119q-34 -51 -112 -94q-77 -43 -185 -43q-173 0 -268 98q-96 99 -108 197 l-9 98v1061q0 7 2 43q1 24 23 94t55 119t115 94q79 43 190 43q296 0 365 -295l12 -98v-250h-274v250v35q0 21 -25 57q-24 35 -74 35q-94 -4 -98 -127v-1061q0 -127 98 -127q99 4 99 111v16v250zM344 1503q0 -532 383 -915t915 -383t918 383q385 382 385 915q0 537 -383 920 t-920 383q-533 0 -915 -385q-383 -386 -383 -918z" />
<glyph unicode="&#xaa;" horiz-adv-x="1363" d="M504 582q0 -209 114 -209q70 0 121 39q52 40 52 96v573q-287 -123 -287 -499zM98 520q0 212 68 375t166 248q102 88 196 145q105 63 177 101q79 41 86 73v74v172q0 205 -115 205q-41 0 -66 -19q-24 -18 -35 -65q-6 -28 -14 -74q-4 -24 -4 -94v-80h-414v94q0 247 162 422 q162 176 395 176q205 0 355 -147q149 -146 149 -361v-700v-676q0 -213 29 -389h-406q-36 39 -36 180h-29q-41 -74 -131 -143q-91 -70 -201 -70q-119 0 -225 121q-107 122 -107 432z" />
<glyph unicode="&#xad;" horiz-adv-x="888" d="M147 909v389h594v-389h-594z" />
<glyph unicode="&#xae;" horiz-adv-x="3289" d="M1249 2384h393q463 0 463 -516q0 -154 -32 -250q-33 -98 -144 -193l213 -798h-303l-188 729h-111v-729h-291v1757zM1630 2126h-90v-516h90q87 0 131 43q46 44 56 90q10 44 10 121q0 80 -10 127q-10 48 -56 92q-44 43 -131 43zM106 1503q0 634 451 1088q449 452 1085 452 t1088 -452q453 -453 453 -1088t-453 -1085q-454 -451 -1088 -451t-1085 451t-451 1085zM344 1503q0 -532 383 -915t915 -383t918 383q385 382 385 915q0 537 -383 920t-920 383q-533 0 -915 -385q-383 -386 -383 -918z" />
<glyph unicode="&#xaf;" horiz-adv-x="2048" d="M627 2630v323h794v-323h-794z" />
<glyph unicode="&#xb2;" horiz-adv-x="1462" d="M565 2056h-442v209q0 778 590 778t590 -749q0 -670 -693 -1856h701v-438h-1200v438l77 123q54 85 177 305q119 212 225 441q96 206 182 483q83 268 88 475q0 369 -147 369q-148 0 -148 -369v-209z" />
<glyph unicode="&#xb3;" horiz-adv-x="1372" d="M496 1360h-37v369q81 5 125 14q49 10 90 29q36 17 61 43q23 25 35 59t18 80q7 52 7 102v123v86q0 75 -2 137q-1 38 -15 117q-12 68 -43 102q-30 33 -80 33q-82 0 -104 -98q-23 -99 -27 -414h-434q0 150 4 230q4 87 35 231q30 139 88 225q57 84 168 150q109 65 270 65 q158 0 271 -61q115 -62 170 -141q54 -78 88 -185q33 -106 39 -159q6 -55 6 -101q0 -581 -213 -794l-4 -5q254 -201 254 -827q0 -50 -6 -117t-39 -198q-34 -134 -88 -232q-55 -99 -170 -178q-114 -78 -271 -78q-158 0 -272 64q-112 63 -172 151q-59 87 -94 226t-41 235 q-7 115 -7 225h435q5 -300 34 -405q30 -107 117 -107q91 0 115 101t24 280q0 12 1 56t2 77q2 96 0 125q0 8 -1.5 22t-3.5 36.5t-4 40.5q-6 70 -18 92q-7 13 -37 65q-23 43 -59 58q-24 10 -90 30q-55 16 -125 21z" />
<glyph unicode="&#xb4;" horiz-adv-x="2048" d="M1032 2978h430l-323 -369h-320z" />
<glyph unicode="&#xb7;" horiz-adv-x="430" d="M0 1298v455h430v-455h-430z" />
<glyph unicode="&#xb8;" horiz-adv-x="2048" d="M1196 -221v-283l-90 -266h-209l82 266h-127v283h344z" />
<glyph unicode="&#xb9;" horiz-adv-x="950" d="M344 2359h-295v283q108 22 189 65q84 44 137 97q51 52 86 98q35 47 47 80l12 29h266v-3011h-442v2359z" />
<glyph unicode="&#xba;" horiz-adv-x="1314" d="M1188 1696v-1151q0 -12 -2 -64q-1 -34 -31 -137q-28 -96 -80 -176q-50 -76 -160 -139q-109 -62 -260 -62q-146 0 -258 62q-109 60 -159 147q-49 84 -78 172q-29 87 -29 148l-4 61v1126q0 12 2 64q1 35 31 141q28 102 78 180q51 81 159 142q111 63 258 63q397 0 504 -393 q29 -104 29 -184zM799 1683q-5 0 0 23q1 7 1 16q0 16 -5 41q-6 25 -21 68q-12 32 -43 57t-76 25q-134 -21 -139 -230v-1126q4 0 0 -22q-1 -7 -1 -16q0 -17 5 -42q5 -23 21 -67q12 -33 43 -56q29 -22 71 -22q140 21 144 225v1126z" />
<glyph unicode="&#xbf;" horiz-adv-x="1290" d="M893 2241v-455h-430v455h430zM487 1430h381v-512q0 -208 -49 -392q-49 -185 -96 -280q-47 -94 -129 -234q-87 -147 -107 -225q-12 -53 23 -121q34 -67 113 -67h8q89 0 155 94q73 104 99 196l356 -168q-24 -66 -67 -137q-47 -78 -119 -164q-76 -91 -193 -151 q-108 -55 -229 -55h-19q-164 5 -276 67q-113 63 -164 164q-52 102 -72 182q-20 79 -20 160q0 162 160 438l114 191q38 63 84 213q47 152 47 289v512z" />
<glyph unicode="&#xc0;" horiz-adv-x="1531" d="M471 0h-430l455 3011h540l455 -3011h-430l-82 614h-426zM918 1081l-127 951l-13 77h-24l-13 -77l-127 -951h304zM283 3645h430l213 -368h-320z" />
<glyph unicode="&#xc1;" horiz-adv-x="1531" d="M471 0h-430l455 3011h540l455 -3011h-430l-82 614h-426zM918 1081l-127 951l-13 77h-24l-13 -77l-127 -951h304zM799 3645h430l-324 -368h-319z" />
<glyph unicode="&#xc2;" horiz-adv-x="1531" d="M471 0h-430l455 3011h540l455 -3011h-430l-82 614h-426zM918 1081l-127 951l-13 77h-24l-13 -77l-127 -951h304zM549 3645h438l283 -368h-377l-127 143l-123 -143h-377z" />
<glyph unicode="&#xc3;" horiz-adv-x="1531" d="M471 0h-430l455 3011h540l455 -3011h-430l-82 614h-426zM918 1081l-127 951l-13 77h-24l-13 -77l-127 -951h304zM586 3330q-51 0 -105 -16q-55 -16 -84 -33l-28 -16v303q98 77 217 77q70 0 182 -36q113 -36 178 -41q51 0 105 16q55 16 84 33l28 16v-303 q-102 -78 -217 -78q-61 0 -178 39t-182 39z" />
<glyph unicode="&#xc4;" horiz-adv-x="1531" d="M471 0h-430l455 3011h540l455 -3011h-430l-82 614h-426zM918 1081l-127 951l-13 77h-24l-13 -77l-127 -951h304zM287 3277v401h381v-401h-381zM864 3277v401h381v-401h-381z" />
<glyph unicode="&#xc5;" horiz-adv-x="1531" d="M471 0h-430l455 3011h540l455 -3011h-430l-82 614h-426zM918 1081l-127 951l-13 77h-24l-13 -77l-127 -951h304zM463 3523q0 121 90 204q89 82 217 82q127 0 215 -82t88 -204q0 -123 -88 -205t-215 -82q-128 0 -217 82q-90 82 -90 205zM618 3523q0 -56 48 -101 q46 -43 104 -43t104 43q48 45 48 101q0 55 -48 100q-46 43 -104 43t-104 -43q-48 -45 -48 -100z" />
<glyph unicode="&#xc6;" horiz-adv-x="2199" d="M1106 0v614h-455l-180 -614h-438l839 3011h1246v-455h-570v-791h410v-483h-410v-827h570v-455h-1012zM1085 2109l-299 -1028h320v1028h-21z" />
<glyph unicode="&#xc7;" horiz-adv-x="1417" d="M901 1032h414v-414q0 -29 -4 -69q-4 -43 -35 -158q-30 -111 -86 -198q-58 -89 -176 -156q-123 -70 -289 -70q-167 0 -289 68q-120 66 -176 164q-57 99 -86 190q-31 97 -35 160l-4 69v1774q0 30 4 70q4 41 35 157q30 113 86 199q58 89 176 156q122 69 289 69 q168 0 289 -67q120 -67 176 -162q56 -96 86 -191q31 -98 35 -165l4 -66v-414h-414v414q-5 0 0 23q4 22 -6 55q-11 33 -25 65q-16 34 -49 56q-34 22 -88 22q-139 -21 -155 -221v-1774q0 -28 4 -61q4 -37 43 -98q39 -62 108 -62q81 0 125 56q43 55 43 112v53v414zM881 -504 v283h-344v-283h127l-82 -266h209z" />
<glyph unicode="&#xc8;" horiz-adv-x="1257" d="M164 0v3011h1012v-455h-570v-791h410v-483h-410v-827h570v-455h-1012zM221 3645h430l213 -368h-319z" />
<glyph unicode="&#xc9;" horiz-adv-x="1257" d="M164 0v3011h1012v-455h-570v-791h410v-483h-410v-827h570v-455h-1012zM684 3645h430l-323 -368h-320z" />
<glyph unicode="&#xca;" horiz-adv-x="1257" d="M164 0v3011h1012v-455h-570v-791h410v-483h-410v-827h570v-455h-1012zM451 3645h438l282 -368h-376l-127 143l-123 -143h-377z" />
<glyph unicode="&#xcb;" horiz-adv-x="1257" d="M164 0v3011h1012v-455h-570v-791h410v-483h-410v-827h570v-455h-1012zM188 3277v401h381v-401h-381zM766 3277v401h381v-401h-381z" />
<glyph unicode="&#xcc;" horiz-adv-x="802" d="M197 0v3011h442v-3011h-442zM-12 3645h430l213 -368h-320z" />
<glyph unicode="&#xcd;" horiz-adv-x="802" d="M164 0v3011h442v-3011h-442zM385 3645h430l-323 -368h-320z" />
<glyph unicode="&#xce;" horiz-adv-x="741" d="M147 0v3011h443v-3011h-443zM152 3645h438l282 -368h-376l-127 143l-123 -143h-377z" />
<glyph unicode="&#xcf;" horiz-adv-x="745" d="M152 0v3011h442v-3011h-442zM-106 3277v401h380v-401h-380zM471 3277v401h381v-401h-381z" />
<glyph unicode="&#xd0;" horiz-adv-x="1523" d="M41 1311v454h123v1246h348q174 0 307 -25q123 -23 225 -68q98 -43 160 -135q63 -94 101 -190q39 -99 57 -279t24 -354q7 -203 7 -457q0 -253 -7 -456q-6 -175 -24 -353q-18 -176 -57 -276q-39 -98 -101 -191q-62 -92 -160 -135t-225 -67q-133 -25 -307 -25h-348v1311 h-123zM606 2568v-803h168v-454h-168v-869q189 0 246 82q77 110 82 639v344v110q0 653 -49 800q-45 130 -185 147q-33 4 -94 4z" />
<glyph unicode="&#xd1;" horiz-adv-x="1617" d="M1061 0l-430 1569l-37 139h-25v-139v-1569h-405v3011h393l430 -1569l37 -139h25v139v1569h405v-3011h-393zM631 3330q-51 0 -105 -16q-56 -16 -84 -33l-28 -16v303q98 77 217 77q70 0 182 -36q113 -36 178 -41q51 0 105 16q56 16 84 33l28 16v-303q-102 -78 -217 -78 q-61 0 -178 39t-182 39z" />
<glyph unicode="&#xd2;" d="M1315 618q0 -29 -4 -69q-4 -43 -35 -158q-30 -111 -86 -198q-58 -89 -176 -156q-123 -70 -289 -70q-167 0 -289 68q-120 66 -176 164q-57 99 -86 190q-31 97 -35 160l-4 69v1774q0 30 4 70q4 41 35 157q30 113 86 199q58 89 176 156q122 69 289 69q168 0 289 -67 q120 -67 176 -162q56 -96 86 -191q31 -98 35 -165l4 -66v-1774zM872 2392q0 12 -2 62q-1 36 -39 98q-37 61 -106 61q-70 0 -107 -55q-36 -53 -36 -109l-4 -57v-1774q0 -11 2 -61q2 -38 38 -98q38 -62 107 -62q68 0 106 56q37 55 37 112l4 53v1774zM242 3645h430l213 -368 h-320z" />
<glyph unicode="&#xd3;" d="M1315 618q0 -29 -4 -69q-4 -43 -35 -158q-30 -111 -86 -198q-58 -89 -176 -156q-123 -70 -289 -70q-167 0 -289 68q-120 66 -176 164q-57 99 -86 190q-31 97 -35 160l-4 69v1774q0 30 4 70q4 41 35 157q30 113 86 199q58 89 176 156q122 69 289 69q168 0 289 -67 q120 -67 176 -162q56 -96 86 -191q31 -98 35 -165l4 -66v-1774zM872 2392q0 12 -2 62q-1 36 -39 98q-37 61 -106 61q-70 0 -107 -55q-36 -53 -36 -109l-4 -57v-1774q0 -11 2 -61q2 -38 38 -98q38 -62 107 -62q68 0 106 56q37 55 37 112l4 53v1774zM782 3645h430l-323 -368 h-320z" />
<glyph unicode="&#xd4;" d="M1315 618q0 -29 -4 -69q-4 -43 -35 -158q-30 -111 -86 -198q-58 -89 -176 -156q-123 -70 -289 -70q-167 0 -289 68q-120 66 -176 164q-57 99 -86 190q-31 97 -35 160l-4 69v1774q0 30 4 70q4 41 35 157q30 113 86 199q58 89 176 156q122 69 289 69q168 0 289 -67 q120 -67 176 -162q56 -96 86 -191q31 -98 35 -165l4 -66v-1774zM872 2392q0 12 -2 62q-1 36 -39 98q-37 61 -106 61q-70 0 -107 -55q-36 -53 -36 -109l-4 -57v-1774q0 -11 2 -61q2 -38 38 -98q38 -62 107 -62q68 0 106 56q37 55 37 112l4 53v1774zM508 3645h438l283 -368 h-377l-127 143l-123 -143h-377z" />
<glyph unicode="&#xd5;" d="M1315 618q0 -29 -4 -69q-4 -43 -35 -158q-30 -111 -86 -198q-58 -89 -176 -156q-123 -70 -289 -70q-167 0 -289 68q-120 66 -176 164q-57 99 -86 190q-31 97 -35 160l-4 69v1774q0 30 4 70q4 41 35 157q30 113 86 199q58 89 176 156q122 69 289 69q168 0 289 -67 q120 -67 176 -162q56 -96 86 -191q31 -98 35 -165l4 -66v-1774zM872 2392q0 12 -2 62q-1 36 -39 98q-37 61 -106 61q-70 0 -107 -55q-36 -53 -36 -109l-4 -57v-1774q0 -11 2 -61q2 -38 38 -98q38 -62 107 -62q68 0 106 56q37 55 37 112l4 53v1774zM545 3330q-51 0 -105 -16 q-56 -16 -84 -33l-28 -16v303q98 77 217 77q70 0 182 -36q113 -36 178 -41q51 0 105 16q56 16 84 33l28 16v-303q-102 -78 -217 -78q-61 0 -178 39t-182 39z" />
<glyph unicode="&#xd6;" d="M1315 618q0 -29 -4 -69q-4 -43 -35 -158q-30 -111 -86 -198q-58 -89 -176 -156q-123 -70 -289 -70q-167 0 -289 68q-120 66 -176 164q-57 99 -86 190q-31 97 -35 160l-4 69v1774q0 30 4 70q4 41 35 157q30 113 86 199q58 89 176 156q122 69 289 69q168 0 289 -67 q120 -67 176 -162q56 -96 86 -191q31 -98 35 -165l4 -66v-1774zM872 2392q0 12 -2 62q-1 36 -39 98q-37 61 -106 61q-70 0 -107 -55q-36 -53 -36 -109l-4 -57v-1774q0 -11 2 -61q2 -38 38 -98q38 -62 107 -62q68 0 106 56q37 55 37 112l4 53v1774zM246 3277v401h381v-401 h-381zM823 3277v401h381v-401h-381z" />
<glyph unicode="&#xd8;" d="M377 -41h-258l94 315q-36 71 -55 160q-19 90 -19 135l-4 49v1774q0 30 4 70q4 41 35 157q30 113 86 199q58 89 176 156q122 69 289 69q184 0 315 -86l29 95h246l-90 -299q41 -78 63 -168q23 -92 23 -144l4 -49v-1774q0 -29 -4 -69q-4 -43 -35 -158q-30 -111 -86 -198 q-58 -89 -176 -156q-123 -70 -289 -70q-191 0 -319 86zM725 397q68 0 106 56q37 55 37 112l4 53v975l-294 -975q0 -11 2 -61q2 -38 38 -98q38 -62 107 -62zM578 2392v-938l294 959q-16 200 -147 200q-70 0 -107 -55q-36 -53 -36 -109z" />
<glyph unicode="&#xd9;" horiz-adv-x="1499" d="M1339 3011h-442v-2393q0 -11 -2 -61q-1 -36 -39 -98t-106 -62q-69 0 -107 56q-37 55 -37 112l-4 53v2393h-442v-2393q0 -29 4 -69q4 -43 35 -158q30 -111 86 -198q58 -89 176 -156q123 -70 289 -70t288 68q120 66 176 164q57 99 86 190q31 97 35 160l4 69v2393zM291 3645 h430l213 -368h-320z" />
<glyph unicode="&#xda;" horiz-adv-x="1499" d="M1339 3011h-442v-2393q0 -11 -2 -61q-1 -36 -39 -98t-106 -62q-69 0 -107 56q-37 55 -37 112l-4 53v2393h-442v-2393q0 -29 4 -69q4 -43 35 -158q30 -111 86 -198q58 -89 176 -156q123 -70 289 -70t288 68q120 66 176 164q57 99 86 190q31 97 35 160l4 69v2393zM827 3645 h430l-323 -368h-320z" />
<glyph unicode="&#xdb;" horiz-adv-x="1499" d="M1339 3011h-442v-2393q0 -11 -2 -61q-1 -36 -39 -98t-106 -62q-69 0 -107 56q-37 55 -37 112l-4 53v2393h-442v-2393q0 -29 4 -69q4 -43 35 -158q30 -111 86 -198q58 -89 176 -156q123 -70 289 -70t288 68q120 66 176 164q57 99 86 190q31 97 35 160l4 69v2393zM532 3645 h439l282 -368h-376l-127 143l-123 -143h-377z" />
<glyph unicode="&#xdc;" horiz-adv-x="1499" d="M897 3011h442v-2393q0 -29 -4 -69q-4 -43 -35 -158q-30 -111 -86 -198q-58 -89 -176 -156q-123 -70 -288 -70q-167 0 -289 68q-120 66 -176 164q-57 99 -86 190q-31 97 -35 160l-4 69v2393h442v-2393q0 -11 2 -61q1 -36 39 -98t107 -62q68 0 106 56q37 55 37 112l4 53 v2393zM270 3277v401h381v-401h-381zM848 3277v401h381v-401h-381z" />
<glyph unicode="&#xdd;" horiz-adv-x="1409" d="M688 2048l-221 963h-434l450 -1729v-1282h443v1282l450 1729h-434l-221 -963l-12 -29h-9zM721 3645h430l-324 -368h-319z" />
<glyph unicode="&#xde;" d="M164 0v3011h438v-484h4q332 0 555 -211t223 -690t-223 -692t-555 -213v-721h-442zM606 2077v-906q204 0 268 91t64 348q0 262 -66 364q-67 103 -266 103z" />
<glyph unicode="&#xdf;" horiz-adv-x="1466" d="M692 1958v283q71 0 121 65q51 66 51 168q0 90 -43 145q-44 56 -129 56q-147 0 -147 -205v-2470h-414v2470q0 246 141 409q141 164 420 164q268 0 404 -161q137 -163 137 -408q0 -217 -176 -348q303 -176 303 -975q0 -361 -41 -598q-40 -232 -133 -352q-92 -119 -205 -160 q-114 -41 -289 -41v385q91 0 142 51t81 223q31 178 31 492q0 334 -31 518q-30 179 -81 234t-142 55z" />
<glyph unicode="&#xe0;" horiz-adv-x="1363" d="M504 582q0 -209 114 -209q70 0 121 39q52 40 52 96v573q-287 -123 -287 -499zM98 520q0 212 68 375t166 248q102 88 196 145q105 63 177 101q79 41 86 73v74v172q0 205 -115 205q-41 0 -66 -19q-24 -18 -35 -65q-6 -28 -14 -74q-4 -24 -4 -94v-80h-414v94q0 247 162 422 q162 176 395 176q205 0 355 -147q149 -146 149 -361v-700v-676q0 -213 29 -389h-406q-36 39 -36 180h-29q-41 -74 -131 -143q-91 -70 -201 -70q-119 0 -225 121q-107 122 -107 432zM205 2978h430l213 -369h-320z" />
<glyph unicode="&#xe1;" horiz-adv-x="1363" d="M504 582q0 -209 114 -209q70 0 121 39q52 40 52 96v573q-287 -123 -287 -499zM98 520q0 212 68 375t166 248q102 88 196 145q105 63 177 101q79 41 86 73v74v172q0 205 -115 205q-41 0 -66 -19q-24 -18 -35 -65q-6 -28 -14 -74q-4 -24 -4 -94v-80h-414v94q0 247 162 422 q162 176 395 176q205 0 355 -147q149 -146 149 -361v-700v-676q0 -213 29 -389h-406q-36 39 -36 180h-29q-41 -74 -131 -143q-91 -70 -201 -70q-119 0 -225 121q-107 122 -107 432zM741 2978h430l-323 -369h-320z" />
<glyph unicode="&#xe2;" horiz-adv-x="1363" d="M504 582q0 -209 114 -209q70 0 121 39q52 40 52 96v573q-287 -123 -287 -499zM98 520q0 212 68 375t166 248q102 88 196 145q105 63 177 101q79 41 86 73v74v172q0 205 -115 205q-41 0 -66 -19q-24 -18 -35 -65q-6 -28 -14 -74q-4 -24 -4 -94v-80h-414v94q0 247 162 422 q162 176 395 176q205 0 355 -147q149 -146 149 -361v-700v-676q0 -213 29 -389h-406q-36 39 -36 180h-29q-41 -74 -131 -143q-91 -70 -201 -70q-119 0 -225 121q-107 122 -107 432zM463 2978h438l283 -369h-377l-127 144l-123 -144h-377z" />
<glyph unicode="&#xe3;" horiz-adv-x="1363" d="M504 582q0 -209 114 -209q70 0 121 39q52 40 52 96v573q-287 -123 -287 -499zM98 520q0 212 68 375t166 248q102 88 196 145q105 63 177 101q79 41 86 73v74v172q0 205 -115 205q-41 0 -66 -19q-24 -18 -35 -65q-6 -28 -14 -74q-4 -24 -4 -94v-80h-414v94q0 247 162 422 q162 176 395 176q205 0 355 -147q149 -146 149 -361v-700v-676q0 -213 29 -389h-406q-36 39 -36 180h-29q-41 -74 -131 -143q-91 -70 -201 -70q-119 0 -225 121q-107 122 -107 432zM504 2675q-48 0 -105 -17q-59 -18 -84 -32l-28 -17v303q99 78 217 78q67 0 182 -37 q113 -36 178 -41q48 0 105 17q59 18 84 32l28 17v-303q-102 -78 -217 -78q-61 0 -178 39t-182 39z" />
<glyph unicode="&#xe4;" horiz-adv-x="1363" d="M504 582q0 -209 114 -209q70 0 121 39q52 40 52 96v573q-287 -123 -287 -499zM98 520q0 212 68 375t166 248q102 88 196 145q105 63 177 101q79 41 86 73v74v172q0 205 -115 205q-41 0 -66 -19q-24 -18 -35 -65q-6 -28 -14 -74q-4 -24 -4 -94v-80h-414v94q0 247 162 422 q162 176 395 176q205 0 355 -147q149 -146 149 -361v-700v-676q0 -213 29 -389h-406q-36 39 -36 180h-29q-41 -74 -131 -143q-91 -70 -201 -70q-119 0 -225 121q-107 122 -107 432zM205 2609v402h381v-402h-381zM782 2609v402h381v-402h-381z" />
<glyph unicode="&#xe5;" horiz-adv-x="1363" d="M504 582q0 -209 114 -209q70 0 121 39q52 40 52 96v573q-287 -123 -287 -499zM98 520q0 212 68 375t166 248q102 88 196 145q105 63 177 101q79 41 86 73v74v172q0 205 -115 205q-41 0 -66 -19q-24 -18 -35 -65q-6 -28 -14 -74q-4 -24 -4 -94v-80h-414v94q0 247 162 422 q162 176 395 176q205 0 355 -147q149 -146 149 -361v-700v-676q0 -213 29 -389h-406q-36 39 -36 180h-29q-41 -74 -131 -143q-91 -70 -201 -70q-119 0 -225 121q-107 122 -107 432zM377 2843q0 121 90 204q89 82 217 82q127 0 215 -82t88 -204q0 -123 -88 -205t-215 -82 q-128 0 -217 82q-90 82 -90 205zM532 2843q0 -56 48 -101q46 -43 104 -43t104 43q48 45 48 101q0 55 -48 100q-46 43 -104 43t-104 -43q-48 -45 -48 -100z" />
<glyph unicode="&#xe6;" horiz-adv-x="1978" d="M1475 803h385v-258q0 -21 -5 -64t-32 -137q-28 -97 -78 -176q-49 -78 -160 -139q-112 -62 -262 -62q-316 0 -451 262q-205 -262 -442 -262q-119 0 -225 121q-107 122 -107 432q0 212 68 375t166 248q102 88 196 145q105 63 177 101q79 41 86 73v246q0 205 -115 205 q-41 0 -66 -19q-24 -18 -35 -65q-6 -28 -14 -74q-4 -24 -4 -94v-80h-414v94q0 247 162 422q162 176 395 176q169 0 304 -102q130 102 323 102q397 0 504 -393q29 -104 29 -184v-652h-684v-487v-25q0 -13 8 -55q8 -40 22 -67q17 -32 47 -54q33 -24 74 -24q141 21 148 225v246 zM504 582q0 -209 114 -209q70 0 121 39q52 40 52 96v573q-287 -123 -287 -499zM1176 1683v-315h299v315q0 12 -2 64q-1 39 -39 102q-38 64 -107 64q-64 0 -104 -58q-38 -56 -43 -114z" />
<glyph unicode="&#xe7;" horiz-adv-x="1290" d="M545 1724v-1208q0 -180 114 -180q71 0 95 39t24 141v311h414v-217q0 -360 -129 -501q-130 -142 -404 -142q-528 0 -528 664v979q0 663 528 663q275 0 404 -141t129 -502v-176h-414v270q0 103 -24 142t-95 39q-114 0 -114 -181zM819 -504v283h-344v-283h127l-82 -266h209z " />
<glyph unicode="&#xe8;" horiz-adv-x="1318" d="M815 803h385v-258q0 -29 -4 -64q-4 -37 -33 -137q-28 -97 -78 -176t-159 -139q-112 -62 -262 -62q-146 0 -258 62q-110 61 -160 147q-49 84 -78 172q-28 85 -33 148l-4 61v1126q0 29 4 64q5 39 33 141q28 101 80 180q52 80 162 142q111 63 258 63q396 0 503 -393 q29 -104 29 -184v-652h-684v-487v-25q0 -13 8 -55q7 -37 23 -67q17 -32 47 -54q33 -24 74 -24q140 21 147 225v246zM516 1683v-315h299v315q0 12 -2 64q-1 39 -39 102q-38 64 -106 64q-65 0 -105 -58q-38 -56 -43 -114zM205 2978h430l213 -369h-320z" />
<glyph unicode="&#xe9;" horiz-adv-x="1318" d="M815 803h385v-258q0 -29 -4 -64q-4 -37 -33 -137q-28 -97 -78 -176t-159 -139q-112 -62 -262 -62q-146 0 -258 62q-110 61 -160 147q-49 84 -78 172q-28 85 -33 148l-4 61v1126q0 29 4 64q5 39 33 141q28 101 80 180q52 80 162 142q111 63 258 63q396 0 503 -393 q29 -104 29 -184v-652h-684v-487v-25q0 -13 8 -55q7 -37 23 -67q17 -32 47 -54q33 -24 74 -24q140 21 147 225v246zM516 1683v-315h299v315q0 12 -2 64q-1 39 -39 102q-38 64 -106 64q-65 0 -105 -58q-38 -56 -43 -114zM741 2978h430l-323 -369h-320z" />
<glyph unicode="&#xea;" horiz-adv-x="1318" d="M815 803h385v-258q0 -29 -4 -64q-4 -37 -33 -137q-28 -97 -78 -176t-159 -139q-112 -62 -262 -62q-146 0 -258 62q-110 61 -160 147q-49 84 -78 172q-28 85 -33 148l-4 61v1126q0 29 4 64q5 39 33 141q28 101 80 180q52 80 162 142q111 63 258 63q396 0 503 -393 q29 -104 29 -184v-652h-684v-487v-25q0 -13 8 -55q7 -37 23 -67q17 -32 47 -54q33 -24 74 -24q140 21 147 225v246zM516 1683v-315h299v315q0 12 -2 64q-1 39 -39 102q-38 64 -106 64q-65 0 -105 -58q-38 -56 -43 -114zM442 2978h439l282 -369h-377l-127 144l-122 -144h-377 z" />
<glyph unicode="&#xeb;" horiz-adv-x="1318" d="M815 803h385v-258q0 -29 -4 -64q-4 -37 -33 -137q-28 -97 -78 -176t-159 -139q-112 -62 -262 -62q-146 0 -258 62q-110 61 -160 147q-49 84 -78 172q-28 85 -33 148l-4 61v1126q0 29 4 64q5 39 33 141q28 101 80 180q52 80 162 142q111 63 258 63q396 0 503 -393 q29 -104 29 -184v-652h-684v-487v-25q0 -13 8 -55q7 -37 23 -67q17 -32 47 -54q33 -24 74 -24q140 21 147 225v246zM516 1683v-315h299v315q0 12 -2 64q-1 39 -39 102q-38 64 -106 64q-65 0 -105 -58q-38 -56 -43 -114zM180 2609v402h381v-402h-381zM758 2609v402h381v-402 h-381z" />
<glyph unicode="&#xec;" horiz-adv-x="741" d="M164 0h414v2241h-414v-2241zM-66 2978h431l213 -369h-320z" />
<glyph unicode="&#xed;" horiz-adv-x="741" d="M164 0h414v2241h-414v-2241zM377 2978h430l-324 -369h-319z" />
<glyph unicode="&#xee;" horiz-adv-x="741" d="M164 0h414v2241h-414v-2241zM152 2978h438l282 -369h-376l-127 144l-123 -144h-377z" />
<glyph unicode="&#xef;" horiz-adv-x="745" d="M578 0h-414v2241h414v-2241zM-106 2609v402h380v-402h-380zM471 2609v402h381v-402h-381z" />
<glyph unicode="&#xf0;" horiz-adv-x="1347" d="M541 2814l217 201q35 -38 106 -123l189 164l110 -131l-200 -177q249 -400 249 -893v-1310q0 -12 -2 -64q-1 -38 -30 -137q-28 -96 -80 -176q-50 -76 -160 -139q-109 -62 -260 -62q-146 0 -258 62q-110 61 -160 147q-49 84 -78 172q-28 84 -28 148l-4 61v1159 q0 557 344 557q128 0 311 -155q-24 215 -102 405l-164 -143l-111 127l201 176zM823 1683q-5 0 0 23q1 7 1 16q0 16 -5 41q-7 32 -20 68q-12 32 -43 57t-76 25q-134 -21 -139 -230v-1126q4 0 0 -22q-1 -7 -1 -16q0 -17 5 -42q6 -30 20 -67q12 -33 43 -56q29 -22 72 -22 q139 21 143 225v1126z" />
<glyph unicode="&#xf1;" horiz-adv-x="1380" d="M713 1872q-82 0 -135 -107v-1765h-414v2241h414v-189l63 64q56 56 133 108q73 49 139 49q152 0 232 -137t80 -301v-1835h-414v1774q0 98 -98 98zM512 2675q-47 0 -104 -17q-59 -18 -84 -32l-29 -17v303q99 78 217 78q67 0 182 -37q113 -36 178 -41q48 0 105 17 q59 18 84 32l29 17v-303q-102 -78 -218 -78q-61 0 -178 39t-182 39z" />
<glyph unicode="&#xf2;" horiz-adv-x="1314" d="M1188 1696v-1151q0 -12 -2 -64q-1 -34 -31 -137q-28 -96 -80 -176q-50 -76 -160 -139q-109 -62 -260 -62q-146 0 -258 62q-109 60 -159 147q-49 84 -78 172q-29 87 -29 148l-4 61v1126q0 12 2 64q1 35 31 141q28 102 78 180q51 81 159 142q111 63 258 63q397 0 504 -393 q29 -104 29 -184zM799 1683q-5 0 0 23q4 20 -4 57q-6 25 -21 68q-12 32 -43 57t-76 25q-134 -21 -139 -230v-1126q4 0 0 -22q-4 -21 4 -58q5 -23 21 -67q12 -33 43 -56q29 -22 71 -22q140 21 144 225v1126zM197 2978h430l213 -369h-320z" />
<glyph unicode="&#xf3;" horiz-adv-x="1314" d="M1188 1696v-1151q0 -12 -2 -64q-1 -34 -31 -137q-28 -96 -80 -176q-50 -76 -160 -139q-109 -62 -260 -62q-146 0 -258 62q-109 60 -159 147q-49 84 -78 172q-29 87 -29 148l-4 61v1126q0 12 2 64q1 35 31 141q28 102 78 180q51 81 159 142q111 63 258 63q397 0 504 -393 q29 -104 29 -184zM799 1683q-5 0 0 23q4 20 -4 57q-6 25 -21 68q-12 32 -43 57t-76 25q-134 -21 -139 -230v-1126q4 0 0 -22q-1 -7 -1 -16q0 -17 5 -42q5 -23 21 -67q12 -33 43 -56q29 -22 71 -22q140 21 144 225v1126zM733 2978h430l-323 -369h-320z" />
<glyph unicode="&#xf4;" horiz-adv-x="1314" d="M1188 1696v-1151q0 -12 -2 -64q-1 -34 -31 -137q-28 -96 -80 -176q-50 -76 -160 -139q-109 -62 -260 -62q-146 0 -258 62q-109 60 -159 147q-49 84 -78 172q-29 87 -29 148l-4 61v1126q0 12 2 64q1 35 31 141q28 102 78 180q51 81 159 142q111 63 258 63q397 0 504 -393 q29 -104 29 -184zM799 1683q-5 0 0 23q4 20 -4 57q-6 25 -21 68q-12 32 -43 57t-76 25q-134 -21 -139 -230v-1126q4 0 0 -22q-4 -21 4 -58q5 -23 21 -67q12 -33 43 -56q29 -22 71 -22q140 21 144 225v1126zM438 2978h439l282 -369h-377l-127 144l-123 -144h-376z" />
<glyph unicode="&#xf5;" horiz-adv-x="1314" d="M1188 1696v-1151q0 -12 -2 -64q-1 -34 -31 -137q-28 -96 -80 -176q-50 -76 -160 -139q-109 -62 -260 -62q-146 0 -258 62q-109 60 -159 147q-49 84 -78 172q-29 87 -29 148l-4 61v1126q0 12 2 64q1 35 31 141q28 102 78 180q51 81 159 142q111 63 258 63q397 0 504 -393 q29 -104 29 -184zM799 1683q-5 0 0 23q4 20 -4 57q-6 25 -21 68q-12 32 -43 57t-76 25q-134 -21 -139 -230v-1126q4 0 0 -22q-4 -21 4 -58q5 -23 21 -67q12 -33 43 -56q29 -22 71 -22q140 21 144 225v1126zM479 2675q-47 0 -104 -17q-59 -18 -84 -32l-29 -17v303 q99 78 217 78q68 0 183 -37q113 -36 178 -41q47 0 104 17q59 18 84 32l29 17v-303q-102 -78 -217 -78q-61 0 -178 39t-183 39z" />
<glyph unicode="&#xf6;" horiz-adv-x="1314" d="M1188 1696v-1151q0 -12 -2 -64q-1 -34 -31 -137q-28 -96 -80 -176q-50 -76 -160 -139q-109 -62 -260 -62q-146 0 -258 62q-109 60 -159 147q-49 84 -78 172q-29 87 -29 148l-4 61v1126q0 12 2 64q1 35 31 141q28 102 78 180q51 81 159 142q111 63 258 63q397 0 504 -393 q29 -104 29 -184zM799 1683q-5 0 0 23q4 20 -4 57q-6 25 -21 68q-12 32 -43 57t-76 25q-134 -21 -139 -230v-1126q4 0 0 -22q-4 -21 4 -58q5 -23 21 -67q12 -33 43 -56q29 -22 71 -22q140 21 144 225v1126zM180 2609v402h381v-402h-381zM758 2609v402h381v-402h-381z" />
<glyph unicode="&#xf8;" horiz-adv-x="1314" d="M410 -156h-160l61 242q-83 78 -129 195q-47 117 -51 194l-4 82v1126q0 12 2 64q1 35 31 141q28 102 78 180q51 81 159 142q111 63 258 63q103 0 213 -37l41 160h152l-62 -242q177 -170 189 -458v-1151q0 -12 -2 -64q-1 -34 -31 -137q-28 -96 -80 -176q-50 -76 -160 -139 q-109 -62 -260 -62q-114 0 -204 33zM516 1683v-811l250 971q-38 70 -111 70q-134 -21 -139 -230zM655 332q140 21 144 225v807l-250 -971q33 -61 106 -61z" />
<glyph unicode="&#xf9;" horiz-adv-x="1380" d="M668 369q83 0 135 106v1766h414v-2241h-414v188l-64 -63q-59 -59 -133 -109q-73 -49 -139 -49q-151 0 -231 137t-80 302v1835h413v-1774q0 -98 99 -98zM225 2978h430l213 -369h-319z" />
<glyph unicode="&#xfa;" horiz-adv-x="1380" d="M668 369q83 0 135 106v1766h414v-2241h-414v188l-64 -63q-59 -59 -133 -109q-73 -49 -139 -49q-151 0 -231 137t-80 302v1835h413v-1774q0 -98 99 -98zM762 2978h430l-324 -369h-319z" />
<glyph unicode="&#xfb;" horiz-adv-x="1380" d="M668 369q83 0 135 106v1766h414v-2241h-414v188l-64 -63q-59 -59 -133 -109q-73 -49 -139 -49q-151 0 -231 137t-80 302v1835h413v-1774q0 -98 99 -98zM471 2978h438l283 -369h-377l-127 144l-123 -144h-377z" />
<glyph unicode="&#xfc;" horiz-adv-x="1380" d="M668 369q83 0 135 106v1766h414v-2241h-414v188l-64 -63q-59 -59 -133 -109q-73 -49 -139 -49q-151 0 -231 137t-80 302v1835h413v-1774q0 -98 99 -98zM213 2609v402h381v-402h-381zM791 2609v402h380v-402h-380z" />
<glyph unicode="&#xfd;" horiz-adv-x="1269" d="M66 -426v-369q149 -8 184 -8q229 0 385 191q155 189 188 444l398 2409h-406l-164 -1377l-8 -114h-16l-9 114l-163 1377h-406l381 -2307q0 -134 -72 -245t-194 -123zM676 2978h430l-324 -369h-319z" />
<glyph unicode="&#xfe;" horiz-adv-x="1372" d="M164 -770v3781h414v-918q176 180 327 180q155 0 238 -137q82 -136 82 -301v-1429q0 -166 -82 -302q-83 -137 -238 -137q-65 0 -147 45q-80 44 -131 90l-49 45v-917h-414zM578 1749v-1257q0 -51 38 -93q39 -43 84 -43t78 39t33 97v1257q0 57 -33 96t-78 39t-84 -39 q-38 -38 -38 -96z" />
<glyph unicode="&#xff;" horiz-adv-x="1269" d="M66 -795v369q35 -8 98 -8q122 12 194 123t72 245l-381 2307h406l163 -1377l9 -114h16l8 114l164 1377h406l-398 -2409q-33 -255 -188 -444q-156 -191 -385 -191zM156 2609v402h381v-402h-381zM733 2609v402h381v-402h-381z" />
<glyph unicode="&#x152;" horiz-adv-x="1966" d="M725 0q-167 0 -289 63q-119 62 -176 156q-56 93 -86 182q-31 92 -35 156l-4 61v1774q0 29 4 68t35 149q30 107 86 187t176 147q122 68 289 68h1159v-455h-569v-791h409v-483h-409v-827h569v-455h-1159zM872 2421q-12 192 -147 192q-70 0 -107 -55q-36 -53 -36 -109 l-4 -57v-1774q0 -11 2 -61q2 -38 38 -98q38 -62 107 -62q68 0 106 56q37 55 37 112l4 53v1803z" />
<glyph unicode="&#x153;" horiz-adv-x="1990" d="M1487 803h385v-258q0 -29 -4 -64q-4 -37 -33 -137q-28 -97 -78 -176q-49 -78 -160 -139q-112 -62 -262 -62q-211 0 -340 115q-136 -115 -340 -115q-146 0 -258 62q-109 60 -159 147q-49 84 -78 172q-29 87 -29 148l-4 61v1126q0 12 2 64q1 35 31 141q28 102 78 180 q51 81 159 142q111 63 258 63q213 0 344 -119q131 119 340 119q397 0 504 -393q29 -104 29 -184v-652h-684v-499q0 -31 8 -74q8 -41 45 -90t98 -49q141 21 148 225v246zM799 1683q-5 0 0 23q4 20 -4 57q-6 25 -21 68q-12 32 -43 57t-76 25q-134 -21 -139 -230v-1126 q4 0 0 -22q-1 -7 -1 -16q0 -17 5 -42q5 -23 21 -67q12 -33 43 -56q29 -22 71 -22q140 21 144 225v1126zM1188 1696v-328h299v315q0 12 -2 64q-1 39 -39 102q-38 64 -107 64q-85 0 -118 -76q-33 -77 -33 -141z" />
<glyph unicode="&#x178;" horiz-adv-x="1409" d="M467 3011l221 -963l12 -29h9l12 29l221 963h434l-450 -1729v-1282h-443v1282l-450 1729h434zM225 3277v401h381v-401h-381zM803 3277v401h381v-401h-381z" />
<glyph unicode="&#x2c6;" horiz-adv-x="2043" d="M803 2978h438l283 -369h-377l-127 144l-123 -144h-377z" />
<glyph unicode="&#x2dc;" horiz-adv-x="2048" d="M844 2675q-48 0 -105 -17q-59 -18 -84 -32l-28 -17v303q99 78 217 78q67 0 182 -37q113 -36 178 -41q48 0 105 17q59 18 84 32l28 17v-303q-102 -78 -217 -78q-61 0 -178 39t-182 39z" />
<glyph unicode="&#x2000;" horiz-adv-x="1904" />
<glyph unicode="&#x2001;" horiz-adv-x="3809" />
<glyph unicode="&#x2002;" horiz-adv-x="1904" />
<glyph unicode="&#x2003;" horiz-adv-x="3809" />
<glyph unicode="&#x2004;" horiz-adv-x="1269" />
<glyph unicode="&#x2005;" horiz-adv-x="950" />
<glyph unicode="&#x2006;" horiz-adv-x="634" />
<glyph unicode="&#x2007;" horiz-adv-x="634" />
<glyph unicode="&#x2008;" horiz-adv-x="475" />
<glyph unicode="&#x2009;" horiz-adv-x="761" />
<glyph unicode="&#x200a;" horiz-adv-x="208" />
<glyph unicode="&#x2010;" horiz-adv-x="888" d="M147 909v389h594v-389h-594z" />
<glyph unicode="&#x2011;" horiz-adv-x="888" d="M147 909v389h594v-389h-594z" />
<glyph unicode="&#x2013;" horiz-adv-x="1613" d="M147 1298v390h1319v-390h-1319z" />
<glyph unicode="&#x2014;" horiz-adv-x="1945" d="M147 1298v390h1651v-390h-1651z" />
<glyph unicode="&#x2018;" horiz-adv-x="618" d="M98 2023v455l226 533h204l-143 -533h143v-455h-430z" />
<glyph unicode="&#x2019;" horiz-adv-x="618" d="M520 3011v-455l-225 -533h-205l143 533h-143v455h430z" />
<glyph unicode="&#x201a;" horiz-adv-x="618" d="M520 455v-455l-225 -532h-205l143 532h-143v455h430z" />
<glyph unicode="&#x201c;" horiz-adv-x="1249" d="M713 2023v455l225 533h205l-144 -533h144v-455h-430zM106 2023v455l226 533h205l-144 -533h144v-455h-431z" />
<glyph unicode="&#x201d;" horiz-adv-x="1249" d="M537 3011v-455l-226 -533h-205l144 533h-144v455h431zM1143 3011v-455l-225 -533h-205l143 533h-143v455h430z" />
<glyph unicode="&#x201e;" horiz-adv-x="1249" d="M537 455v-455l-226 -532h-205l144 532h-144v455h431zM1143 455v-455l-225 -532h-205l143 532h-143v455h430z" />
<glyph unicode="&#x2022;" horiz-adv-x="1327" d="M164 1634q0 206 145 351t359 145q205 0 350 -145t145 -351q0 -213 -145 -358q-146 -146 -350 -146q-213 0 -359 146q-145 145 -145 358z" />
<glyph unicode="&#x2026;" horiz-adv-x="1929" d="M106 0v455h431v-455h-431zM750 0v455h430v-455h-430zM1393 0v455h430v-455h-430z" />
<glyph unicode="&#x202f;" horiz-adv-x="761" />
<glyph unicode="&#x2039;" horiz-adv-x="2117" d="M147 1298v320l1823 950v-397l-1397 -713l1397 -713v-397z" />
<glyph unicode="&#x203a;" horiz-adv-x="2117" d="M1970 1618v-320l-1823 -950v397l1397 713l-1397 713v397z" />
<glyph unicode="&#x205f;" horiz-adv-x="950" />
<glyph unicode="&#x20ac;" horiz-adv-x="1626" d="M106 1642v275h213v475q0 20 5 70q5 47 34 157q30 113 86 199q57 88 177 156q121 69 288 69q168 0 289 -67q120 -67 176 -162q56 -96 86 -191q31 -98 35 -165l4 -66v-168h-414v168q-5 0 0 23q4 22 -6 55q-13 41 -24 65q-16 34 -49 56q-34 22 -88 22q-140 -21 -156 -221 v-475h467v-275h-467v-274h467v-274h-467v-476q0 -28 4 -61q4 -37 43 -98q39 -62 109 -62q81 0 122 56t41 112l4 53v168h414v-168q0 -29 -4 -69q-4 -43 -35 -158q-30 -111 -86 -198q-58 -89 -176 -156q-123 -70 -289 -70t-288 68q-121 67 -177 164q-57 99 -86 190 q-29 93 -34 160l-5 69v476h-213v274h213v274h-213z" />
<glyph unicode="&#x2122;" horiz-adv-x="1875" d="M356 2802h-209v209h644v-209h-209v-1160h-226v1160zM1348 1642h-103l-160 898v-898h-204v1369h274l135 -639h13l135 639h274v-1369h-209v898z" />
</font>
</defs>
</svg>
